<?xml version="1.0" standalone="no"?>
<!DOCTYPE svg PUBLIC "-//W3C//DTD SVG 1.1//EN" "http://www.w3.org/Graphics/SVG/1.1/DTD/svg11.dtd" >
<svg xmlns="http://www.w3.org/2000/svg" xmlns:xlink="http://www.w3.org/1999/xlink" version="1.1">
<metadata></metadata>
<defs>
<font id="metropolislight" horiz-adv-x="1515" >
<font-face units-per-em="2048" ascent="1628" descent="-420" />
<missing-glyph horiz-adv-x="593" />
<glyph horiz-adv-x="0" />
<glyph horiz-adv-x="682" />
<glyph unicode=" "  horiz-adv-x="593" />
<glyph unicode="&#x09;" horiz-adv-x="593" />
<glyph unicode="&#xa0;" horiz-adv-x="593" />
<glyph unicode="!" horiz-adv-x="526" d="M170 72q0 37 27.5 64.5t68.5 27.5q38 0 65 -27.5t27 -64.5q0 -40 -27 -68.5t-65 -28.5q-41 0 -68.5 28.5t-27.5 68.5zM193 1407h149l-27 -1012h-98z" />
<glyph unicode="&#x22;" horiz-adv-x="827" d="M145 1280q0 34 25 58t59 24t58 -24t24 -58q0 -40 -7 -104.5t-19.5 -154t-16.5 -124.5h-80q-4 35 -16.5 124.5t-19.5 154t-7 104.5zM514 1280q0 34 25 58t59 24t58 -24t24 -58q0 -40 -7 -104.5t-19.5 -154t-16.5 -124.5h-80q-4 35 -16.5 124.5t-19.5 154t-7 104.5z" />
<glyph unicode="#" horiz-adv-x="1376" d="M80 375l26 108h242l111 439h-244l27 108h245l95 377h114l-94 -377h328l94 377h115l-95 -377h250l-26 -108h-252l-111 -439h252l-27 -108h-251l-95 -375h-114l94 375h-328l-94 -375h-115l95 375h-242zM463 483h328l110 439h-328z" />
<glyph unicode="$" horiz-adv-x="1249" d="M94 201l82 102q165 -165 379 -197v558q-208 54 -306.5 137t-98.5 231q0 159 113 270t292 130v122h131v-124q227 -22 420 -197l-82 -103q-153 150 -338 177v-533q111 -27 191 -59.5t141 -79t91 -111t30 -147.5q0 -167 -120.5 -278.5t-332.5 -121.5v-129h-131v136 q-267 26 -461 217zM283 1042q0 -85 65.5 -138.5t206.5 -94.5v500q-120 -13 -196 -89t-76 -178zM686 98q148 9 234 85t86 182q0 100 -76.5 161t-243.5 105v-533z" />
<glyph unicode="%" horiz-adv-x="1611" d="M96 1063q0 154 90 255t228 101q139 0 228 -100.5t89 -251.5q0 -152 -89.5 -252t-229.5 -100q-138 0 -227 100t-89 248zM207 1065q0 -108 59 -180t148 -72q90 0 148.5 71.5t58.5 180.5q0 110 -59 183t-150 73q-89 0 -147 -72t-58 -184zM264 0l963 1407h123l-963 -1407 h-123zM879 332q0 150 89 251t228 101t228 -101t89 -249q0 -153 -90 -253.5t-229 -100.5q-136 0 -225.5 100t-89.5 252zM989 334q0 -111 58.5 -183.5t148.5 -72.5q92 0 149.5 71.5t57.5 182.5q0 109 -59.5 181.5t-149.5 72.5t-147.5 -72t-57.5 -180z" />
<glyph unicode="&#x26;" horiz-adv-x="1355" d="M84 375q0 264 332 407q-68 92 -98.5 165t-30.5 147q0 138 99 233.5t247 95.5q136 0 232 -96t96 -229q0 -54 -18 -100t-47 -80t-77 -66.5t-95.5 -56.5t-115.5 -52q101 -118 342 -374q93 136 174 327l111 -49q-97 -214 -203 -364q152 -152 238 -240l-123 -57l-195 196 q-188 -207 -424 -207q-189 0 -316.5 111.5t-127.5 288.5zM211 377q0 -125 93.5 -205t225.5 -80q184 0 340 176q-259 271 -385 426q-274 -125 -274 -317zM414 1094q0 -109 123 -265q161 65 229 121.5t68 145.5q0 87 -58.5 149t-144.5 62q-92 0 -154.5 -59.5t-62.5 -153.5z " />
<glyph unicode="'" horiz-adv-x="456" d="M145 1280q0 34 25 58t59 24t58 -24t24 -58q0 -40 -7 -104.5t-19.5 -154t-16.5 -124.5h-80q-4 35 -16.5 124.5t-19.5 154t-7 104.5z" />
<glyph unicode="(" horiz-adv-x="712" d="M127 543q0 251 109 480.5t311 410.5l71 -76q-358 -364 -358 -815q0 -452 358 -813l-71 -78q-202 181 -311 410.5t-109 480.5z" />
<glyph unicode=")" horiz-adv-x="712" d="M94 -270q359 362 359 813q0 450 -359 815l72 76q202 -181 311 -410.5t109 -480.5t-109 -480.5t-311 -410.5z" />
<glyph unicode="*" horiz-adv-x="802" d="M123 981.5q4 17.5 18 26.5q40 23 124 55t104 41q-24 10 -106 42.5t-122 53.5q-14 9 -18 26.5t6 35.5q9 15 27 21t32 -3q40 -23 110.5 -79t86.5 -68q-2 15 -16.5 106t-14.5 137q0 18 13.5 30.5t33.5 12.5q19 0 32 -13t13 -30q0 -45 -13 -131.5t-15 -111.5q24 18 62 50 t70 56.5t62 40.5q15 9 34 3t28 -21q8 -18 3.5 -35.5t-18.5 -26.5q-38 -23 -120.5 -54.5t-104.5 -41.5q25 -11 105.5 -43t119.5 -53q14 -9 18.5 -26.5t-3.5 -35.5q-9 -15 -28 -21t-34 3q-29 17 -61 41.5t-70.5 56t-62.5 49.5q2 -25 15 -112t13 -132q0 -17 -13 -30t-32 -13 q-20 0 -33.5 12.5t-13.5 30.5q0 46 14.5 138t16.5 106q-15 -11 -86 -68t-111 -79q-14 -9 -32 -3t-27 21q-10 18 -6 35.5z" />
<glyph unicode="+" horiz-adv-x="1214" d="M137 621v127h408v407h127v-407h405v-127h-405v-406h-127v406h-408z" />
<glyph unicode="," horiz-adv-x="524" d="M162 -215q80 92 106 190q-39 0 -66.5 28.5t-27.5 68.5q0 38 27 65t69 27q47 0 76 -38.5t29 -98.5t-32.5 -125.5t-113.5 -167.5z" />
<glyph unicode="-" horiz-adv-x="759" d="M115 494v124h530v-124h-530z" />
<glyph unicode="." horiz-adv-x="485" d="M150 72q0 37 27.5 64.5t68.5 27.5q38 0 65 -27.5t27 -64.5q0 -40 -27 -68.5t-65 -28.5q-41 0 -68.5 28.5t-27.5 68.5z" />
<glyph unicode="/" horiz-adv-x="819" d="M-33 -152l719 1674h143l-718 -1674h-144z" />
<glyph unicode="0" horiz-adv-x="1382" d="M121 705q0 211 72 376.5t202.5 258t296.5 92.5q165 0 295 -92.5t202.5 -258.5t72.5 -376q0 -211 -72.5 -378t-202.5 -259.5t-295 -92.5q-124 0 -230.5 54t-181.5 150t-117 232t-42 294zM254 705q0 -266 122.5 -436.5t315.5 -170.5q126 0 226 77.5t155 216t55 313.5 q0 266 -122 435t-314 169q-193 0 -315.5 -169t-122.5 -435z" />
<glyph unicode="1" horiz-adv-x="708" d="M53 1171l355 236h106v-1407h-131v1245l-270 -174z" />
<glyph unicode="2" horiz-adv-x="1200" d="M100 0v115l525 448q148 127 216 237t68 216q0 128 -90 212.5t-219 84.5q-228 0 -393 -228l-94 76q191 271 489 271q187 0 313.5 -117.5t126.5 -296.5q0 -137 -77 -263.5t-250 -275.5l-410 -354h760v-125h-965z" />
<glyph unicode="3" horiz-adv-x="1175" d="M82 227l92 86q74 -104 178 -160.5t232 -56.5q149 0 245.5 83.5t96.5 209.5t-100 194t-277 68h-141v123l143 -2q157 0 250.5 69t93.5 193q0 117 -94.5 197t-231.5 80q-111 0 -202 -54.5t-174 -160.5l-89 82q190 254 474 254q193 0 321.5 -109t128.5 -274 q0 -125 -71.5 -209.5t-186.5 -118.5q124 -29 206.5 -116t82.5 -224q0 -173 -134.5 -289.5t-340.5 -116.5q-158 0 -285 66.5t-217 185.5z" />
<glyph unicode="4" horiz-adv-x="1255" d="M82 469l696 938h158v-932h219v-121h-219v-354h-131v354h-705zM233 475h572v774z" />
<glyph unicode="5" horiz-adv-x="1212" d="M115 199l86 96q180 -199 415 -199q147 0 247 97.5t100 238.5q0 138 -99.5 229t-249.5 91q-162 0 -315 -113l-102 49l18 719h813v-125h-684l-14 -512q137 100 313 100q123 0 226 -52.5t165 -152.5t62 -227q0 -201 -138.5 -332t-345.5 -131q-152 0 -279 59.5t-218 164.5z " />
<glyph unicode="6" horiz-adv-x="1247" d="M123 682q0 210 72.5 382t200 270t282.5 98q224 0 399 -168l-73 -103q-153 150 -330 150q-117 0 -213.5 -82.5t-151.5 -227t-55 -319.5v-41q54 108 165.5 173t246.5 65q191 0 324.5 -123t133.5 -316q0 -195 -138 -330t-343 -135q-131 0 -231 52t-163 146.5t-94.5 223 t-31.5 285.5zM272 479q33 -180 127 -283.5t242 -103.5q151 0 250.5 102.5t99.5 237.5q0 145 -101 237.5t-249 92.5q-138 0 -240 -79.5t-129 -203.5z" />
<glyph unicode="7" horiz-adv-x="1222" d="M121 1282v125h946v-100l-616 -1307h-150l608 1282h-788z" />
<glyph unicode="8" horiz-adv-x="1212" d="M106 367q0 125 87 221t223 139q-123 44 -198 132t-75 202q0 107 65.5 193t171 132t226.5 46q123 0 229 -46.5t171 -133t65 -193.5q0 -117 -77 -204t-197 -128q136 -45 222.5 -141t86.5 -219q0 -112 -67.5 -202.5t-181.5 -140t-251 -49.5q-138 0 -252.5 49.5t-181 140 t-66.5 202.5zM240 375q0 -119 106.5 -199t259.5 -80q152 0 259.5 80t107.5 199q0 82 -55.5 148t-138.5 100t-173 36q-89 -2 -171.5 -36t-138.5 -100t-56 -148zM276 1047q0 -77 50 -138t123.5 -92t156.5 -35q83 4 157.5 35.5t124.5 92.5t50 137q0 112 -97 188t-235 76 q-137 0 -233.5 -76t-96.5 -188z" />
<glyph unicode="9" horiz-adv-x="1247" d="M123 967q0 195 138 330t343 135q131 0 231 -52t163 -146.5t94.5 -223t31.5 -285.5q0 -210 -72.5 -382t-200 -270t-282.5 -98q-224 0 -399 168l74 103q153 -150 329 -150q117 0 213.5 82.5t151.5 227t55 319.5v41q-55 -108 -165.5 -173t-245.5 -65q-191 0 -325 123 t-134 316zM256 975q0 -145 101 -237.5t249 -92.5q138 0 240 79.5t129 203.5q-33 180 -127 283.5t-242 103.5q-151 0 -250.5 -102.5t-99.5 -237.5z" />
<glyph unicode=":" horiz-adv-x="485" d="M150 72q0 37 27.5 64.5t68.5 27.5q38 0 65 -27.5t27 -64.5q0 -40 -27 -68.5t-65 -28.5q-41 0 -68.5 28.5t-27.5 68.5zM150 944q0 37 27.5 64.5t68.5 27.5q38 0 65 -27.5t27 -64.5q0 -39 -27 -67.5t-65 -28.5q-41 0 -68.5 28.5t-27.5 67.5z" />
<glyph unicode=";" horiz-adv-x="524" d="M162 -215q80 92 106 190q-39 0 -66.5 28.5t-27.5 68.5q0 38 27 65t69 27q47 0 76 -38.5t29 -98.5t-32.5 -125.5t-113.5 -167.5zM174 944q0 37 27.5 64.5t68.5 27.5q38 0 65 -27.5t27 -64.5q0 -40 -27 -68t-65 -28q-41 0 -68.5 28t-27.5 68z" />
<glyph unicode="&#x3c;" horiz-adv-x="1200" d="M113 649v111l931 459v-127l-798 -387l798 -388v-127z" />
<glyph unicode="=" horiz-adv-x="1214" d="M137 395v127h940v-127h-940zM137 846v127h940v-127h-940z" />
<glyph unicode="&#x3e;" horiz-adv-x="1200" d="M156 190v127l798 388l-798 387v127l931 -459v-111z" />
<glyph unicode="?" horiz-adv-x="1024" d="M55 1196q190 236 463 236q181 0 298.5 -109t117.5 -268q0 -137 -115 -247.5t-295 -145.5v-267h-133v367q180 15 295 94t115 188q0 108 -82 187.5t-209 79.5q-211 0 -367 -201zM362 72q0 37 28 64.5t69 27.5q38 0 65 -27.5t27 -64.5q0 -40 -27 -68.5t-65 -28.5 q-41 0 -69 28.5t-28 68.5z" />
<glyph unicode="@" horiz-adv-x="1804" d="M90 530q0 170 69 327.5t184 272.5t273.5 183.5t329.5 68.5q154 0 296 -59t245.5 -157t165 -233t61.5 -280q0 -121 -31.5 -217.5t-83.5 -155t-116 -89.5t-133 -31q-93 0 -154 47t-78 129q-61 -79 -148 -127.5t-188 -48.5q-146 0 -238.5 98.5t-92.5 255.5q0 104 39.5 199.5 t104 163.5t149.5 108.5t174 40.5q102 0 174.5 -47t109.5 -119l27 135l119 -10q-111 -548 -111 -594q0 -66 40.5 -104.5t104.5 -38.5q35 0 70 14t69.5 46t60.5 78t42 115t16 152q0 131 -56 252.5t-150 209.5t-223.5 141t-268.5 53q-155 0 -298 -62.5t-247 -167t-166.5 -248.5 t-62.5 -299q0 -112 36.5 -218t102.5 -192t153.5 -151t195.5 -101t221 -36q126 0 228 29t214 96l37 -55q-119 -75 -232 -108.5t-252 -33.5q-208 0 -388.5 104t-287 281.5t-106.5 382.5zM573 522q0 -115 66.5 -186.5t173.5 -71.5q139 0 230.5 103t111.5 258q19 135 -40 216 t-183 81q-146 0 -252.5 -119t-106.5 -281z" />
<glyph unicode="A" d="M66 0l620 1407h143l621 -1407h-143l-146 332h-807l-145 -332h-143zM412 459h692l-346 786z" />
<glyph unicode="B" horiz-adv-x="1378" d="M193 0v1407h626q170 0 278.5 -98t108.5 -252q0 -215 -200 -314q119 -54 187.5 -148.5t68.5 -209.5q0 -169 -117.5 -277t-300.5 -108h-651zM324 121h491q138 0 225.5 78t87.5 200t-87.5 199.5t-225.5 77.5h-491v-555zM324 797h475q121 0 197.5 68.5t76.5 176.5 q0 106 -79 175t-203 69h-467v-489z" />
<glyph unicode="C" horiz-adv-x="1392" d="M106 705q0 145 58.5 279.5t156 232.5t230.5 156.5t276 58.5q144 0 275 -56.5t231 -158.5l-90 -91q-81 85 -189.5 134t-226.5 49q-117 0 -225.5 -48.5t-188 -130t-126.5 -193t-47 -232.5q0 -162 79.5 -302t215 -222.5t292.5 -82.5q118 0 226.5 49.5t189.5 135.5l90 -93 q-101 -101 -232 -158t-274 -57q-191 0 -357.5 99.5t-265 268t-98.5 362.5z" />
<glyph unicode="D" horiz-adv-x="1548" d="M193 0v1407h477q216 0 386.5 -89t265.5 -249t95 -364t-95 -364.5t-265.5 -250.5t-386.5 -90h-477zM324 121h346q270 0 443 164t173 420q0 255 -173 418t-443 163h-346v-1165z" />
<glyph unicode="E" horiz-adv-x="1255" d="M162 0v1407h981v-125h-848v-502h770v-127h-770v-528h848v-125h-981z" />
<glyph unicode="F" horiz-adv-x="1232" d="M162 0v1407h995v-125h-862v-502h778v-127h-778v-653h-133z" />
<glyph unicode="G" horiz-adv-x="1523" d="M106 705q0 145 58.5 279.5t156 232.5t230.5 156.5t276 58.5q150 0 298 -57.5t247 -155.5l-90 -93q-83 84 -206.5 133.5t-248.5 49.5q-117 0 -225.5 -48.5t-188 -130t-126.5 -193t-47 -232.5q0 -162 79.5 -302t215 -222.5t292.5 -82.5q109 0 219 38.5t195 105.5v360h-432 v125h563v-539q-100 -97 -248 -155t-297 -58q-191 0 -357.5 99.5t-265 268t-98.5 362.5z" />
<glyph unicode="H" horiz-adv-x="1443" d="M162 0v1407h131v-627h858v627h131v-1407h-131v653h-858v-653h-131z" />
<glyph unicode="I" horiz-adv-x="454" d="M162 0v1407h131v-1407h-131z" />
<glyph unicode="J" horiz-adv-x="1091" d="M53 209l92 96q47 -92 140 -150.5t194 -58.5q134 0 219.5 100t85.5 257v954h131v-954q0 -210 -122 -344t-314 -134q-125 0 -243 65.5t-183 168.5z" />
<glyph unicode="K" horiz-adv-x="1318" d="M188 0v1407h131v-813l744 813h174l-590 -641l631 -766h-170l-551 676l-238 -254v-422h-131z" />
<glyph unicode="L" horiz-adv-x="1122" d="M139 0v1407h131v-1282h783v-125h-914z" />
<glyph unicode="M" horiz-adv-x="1720" d="M193 0v1407h131l536 -1008l537 1008h131v-1407h-131v1128l-537 -1007l-536 1007v-1128h-131z" />
<glyph unicode="N" horiz-adv-x="1548" d="M193 0v1407h131l901 -1194v1194h131v-1407h-131l-901 1194v-1194h-131z" />
<glyph unicode="O" horiz-adv-x="1652" d="M106 705q0 145 58.5 279.5t156 232.5t230.5 156.5t276 58.5q144 0 277 -58.5t229.5 -156.5t154.5 -232.5t58 -279.5q0 -194 -97.5 -362.5t-263.5 -268t-358 -99.5q-191 0 -357.5 99.5t-265 268t-98.5 362.5zM240 705q0 -162 79.5 -302t215 -222.5t292.5 -82.5t292 82.5 t214.5 222.5t79.5 302q0 161 -79.5 300.5t-214.5 221.5t-292 82q-117 0 -225.5 -48.5t-188 -130t-126.5 -193t-47 -232.5z" />
<glyph unicode="P" horiz-adv-x="1314" d="M162 0v1407h577q218 0 363 -125t145 -319t-145 -318.5t-363 -124.5h-446v-520h-131zM293 645h424q179 0 289 86.5t110 231.5q0 146 -110 232.5t-289 86.5h-424v-637z" />
<glyph unicode="Q" horiz-adv-x="1652" d="M106 705q0 145 58.5 279.5t156 232.5t230.5 156.5t276 58.5q144 0 277 -58.5t229.5 -156.5t154.5 -232.5t58 -279.5q0 -266 -174 -472l156 -135l-84 -98l-164 141q-203 -166 -453 -166q-191 0 -357.5 99.5t-265 268t-98.5 362.5zM240 705q0 -162 79.5 -302t215 -222.5 t292.5 -82.5q198 0 357 127l-240 207l84 98l246 -213q66 79 102.5 180t36.5 208q0 161 -79.5 300.5t-214.5 221.5t-292 82q-117 0 -225.5 -48.5t-188 -130t-126.5 -193t-47 -232.5z" />
<glyph unicode="R" horiz-adv-x="1323" d="M162 0v1407h577q218 0 363 -125t145 -319q0 -168 -111 -286.5t-290 -148.5l373 -528h-152l-367 520h-407v-520h-131zM293 645h424q179 0 289 86.5t110 231.5q0 146 -110 232.5t-289 86.5h-424v-637z" />
<glyph unicode="S" horiz-adv-x="1249" d="M94 201l82 102q205 -205 477 -205q161 0 257 77.5t96 189.5q0 111 -93 173.5t-303 110.5q-238 56 -349 140.5t-111 242.5q0 172 132 287t332 115q271 0 492 -201l-82 -103q-89 87 -196 135t-220 48q-141 0 -233 -78.5t-92 -192.5q0 -101 92 -158t301 -108 q233 -55 348 -145.5t115 -253.5q0 -174 -131.5 -287t-358.5 -113q-164 0 -305.5 58.5t-249.5 165.5z" />
<glyph unicode="T" horiz-adv-x="1290" d="M92 1282v125h1106v-125h-487v-1282h-131v1282h-488z" />
<glyph unicode="U" horiz-adv-x="1499" d="M176 569v838h131v-838q0 -207 124.5 -340t318.5 -133q193 0 317.5 133t124.5 340v838h131v-838q0 -261 -160.5 -427.5t-412.5 -166.5t-413 166.5t-161 427.5z" />
<glyph unicode="V" d="M66 1407h143l549 -1245l549 1245h143l-621 -1407h-143z" />
<glyph unicode="W" horiz-adv-x="2181" d="M76 1407h147l404 -1188l391 1188h145l393 -1188l402 1188h147l-477 -1407h-133l-403 1229l-406 -1229h-133z" />
<glyph unicode="X" horiz-adv-x="1394" d="M78 0l538 702l-538 705h162l456 -598l459 598h162l-539 -705l537 -702h-162l-457 598l-456 -598h-162z" />
<glyph unicode="Y" horiz-adv-x="1347" d="M37 1407h164l473 -705l477 705h160l-568 -834v-573h-137v573z" />
<glyph unicode="Z" horiz-adv-x="1294" d="M119 0v104l876 1178h-862v125h1038v-104l-878 -1178h887v-125h-1061z" />
<glyph unicode="[" horiz-adv-x="739" d="M166 -236v1739h473v-102h-358v-1534h358v-103h-473z" />
<glyph unicode="\" horiz-adv-x="819" d="M-10 1522h143l719 -1674h-143z" />
<glyph unicode="]" horiz-adv-x="739" d="M100 -133h359v1534h-359v102h473v-1739h-473v103z" />
<glyph unicode="^" horiz-adv-x="989" d="M111 846l329 561h111l328 -561h-119l-264 459l-269 -459h-116z" />
<glyph unicode="_" horiz-adv-x="1212" d="M-4 -164h1221v-117h-1221v117z" />
<glyph unicode="`" horiz-adv-x="645" d="M129 1442l135 31l252 -293h-113z" />
<glyph unicode="a" horiz-adv-x="1161" d="M102 313q0 155 120 254t300 99q160 0 355 -64v43q0 63 -15.5 117.5t-49 103t-96 77t-147.5 28.5q-143 0 -313 -94l-51 104q192 102 375 102q204 0 314 -120t110 -318v-645h-127v168q-56 -90 -166.5 -141.5t-223.5 -51.5q-168 0 -276.5 93t-108.5 245zM227 319 q0 -104 80 -166.5t201 -62.5q77 0 151.5 25.5t136.5 82t81 134.5v170q-171 53 -336 53q-133 0 -223.5 -67t-90.5 -169z" />
<glyph unicode="b" horiz-adv-x="1286" d="M170 0v1432h127v-580q63 109 165 170t230 61q134 0 245 -72t175 -199t64 -282q0 -156 -64 -283.5t-175 -199.5t-245 -72q-128 0 -230 61.5t-165 170.5v-207h-127zM297 530q0 -192 104.5 -315t268.5 -123q160 0 267 125.5t107 312.5t-107 312t-267 125 q-164 0 -268.5 -122.5t-104.5 -314.5z" />
<glyph unicode="c" horiz-adv-x="1095" d="M98 530q0 114 43 216.5t115.5 176t173 117t211.5 43.5q104 0 200 -41t171 -114l-88 -86q-119 125 -283 125q-172 0 -291 -127t-119 -310q0 -184 119 -311t291 -127q82 0 156.5 34t130.5 95l88 -86q-75 -75 -172.5 -117.5t-202.5 -42.5q-111 0 -211.5 43.5t-173 117.5 t-115.5 177t-43 217z" />
<glyph unicode="d" horiz-adv-x="1286" d="M111 530q0 155 63.5 282t174.5 199t245 72q128 0 230 -61t165 -170v580h127v-1432h-127v207q-63 -109 -165 -170.5t-230 -61.5q-134 0 -245 72t-174.5 199.5t-63.5 283.5zM242 530q0 -187 107 -312.5t267 -125.5q164 0 268.5 123t104.5 315t-104.5 314.5t-268.5 122.5 q-160 0 -267 -125t-107 -312z" />
<glyph unicode="e" horiz-adv-x="1218" d="M98 532q0 153 70.5 280t190.5 199t262 72q233 0 367 -164t134 -440h-895q18 -167 129.5 -277t272.5 -110q101 0 199 36.5t153 96.5l80 -86q-66 -72 -189.5 -118t-242.5 -46q-105 0 -202 43t-169.5 116.5t-116 177.5t-43.5 220zM229 596h766q-12 165 -109.5 268 t-260.5 103q-155 0 -265.5 -103.5t-130.5 -267.5z" />
<glyph unicode="f" horiz-adv-x="712" d="M76 942v117h172v145q0 118 69.5 194.5t176.5 76.5q106 0 196 -68l-65 -94q-45 45 -123 45q-53 0 -90 -43.5t-37 -110.5v-145h272v-117h-272v-942h-127v942h-172z" />
<glyph unicode="g" horiz-adv-x="1275" d="M96 582q0 215 136.5 358t342.5 143q133 0 237.5 -58.5t166.5 -166.5v201h127v-946q0 -204 -142 -334.5t-366 -130.5q-122 0 -238 39t-190 102l57 102q64 -58 160.5 -92.5t196.5 -34.5q182 0 288.5 94t106.5 255v192q-62 -108 -167.5 -167.5t-236.5 -59.5 q-206 0 -342.5 143.5t-136.5 360.5zM227 582q0 -166 106.5 -276.5t264.5 -110.5q166 0 273.5 108.5t107.5 278.5q0 168 -107.5 276.5t-273.5 108.5q-158 0 -264.5 -110.5t-106.5 -274.5z" />
<glyph unicode="h" horiz-adv-x="1185" d="M158 0v1432h127v-547q43 89 137.5 143.5t210.5 54.5q175 0 286 -113t111 -290v-680h-127v664q0 133 -80.5 218t-206.5 85q-139 0 -235 -85t-96 -208v-674h-127z" />
<glyph unicode="i" horiz-adv-x="434" d="M129 1354q0 36 26 62t62 26t62 -26t26 -62q0 -37 -25.5 -62.5t-62.5 -25.5t-62.5 25.5t-25.5 62.5zM154 0v1059h127v-1059h-127z" />
<glyph unicode="j" horiz-adv-x="417" d="M-139 -332l20 109q62 -25 137 -25q55 0 91 41.5t36 106.5v1159h127v-1159q0 -116 -69 -190.5t-176 -74.5q-91 0 -166 33zM121 1354q0 36 26 62t62 26t62 -26t26 -62q0 -37 -25.5 -62.5t-62.5 -25.5t-62.5 25.5t-25.5 62.5z" />
<glyph unicode="k" horiz-adv-x="1083" d="M154 0v1432h127v-990l608 617h166l-477 -486l450 -573h-160l-381 487l-206 -208v-279h-127z" />
<glyph unicode="l" horiz-adv-x="438" d="M156 0v1432h127v-1432h-127z" />
<glyph unicode="m" horiz-adv-x="1808" d="M156 0v1059h127v-156q38 84 121.5 132t191.5 48q118 0 207 -61.5t131 -167.5q34 104 129.5 166.5t218.5 62.5q163 0 267 -113t104 -290v-680h-127v664q0 134 -73.5 218.5t-188.5 84.5q-130 0 -213.5 -80.5t-83.5 -206.5v-680h-127v664q0 134 -72.5 218.5t-187.5 84.5 q-130 0 -213.5 -80.5t-83.5 -206.5v-680h-127z" />
<glyph unicode="n" horiz-adv-x="1185" d="M158 0v1059h127v-174q43 89 137.5 143.5t210.5 54.5q175 0 286 -113t111 -290v-680h-127v664q0 133 -80.5 218t-206.5 85q-139 0 -235 -85t-96 -208v-674h-127z" />
<glyph unicode="o" horiz-adv-x="1292" d="M98 530q0 148 75 275.5t201.5 202.5t272.5 75q109 0 210.5 -44.5t175 -119t117.5 -176.5t44 -213t-44 -213.5t-117.5 -177.5t-175 -119.5t-210.5 -44.5t-210.5 45t-175.5 119.5t-118.5 177t-44.5 213.5zM231 530q0 -180 123 -309t293 -129q169 0 291.5 129t122.5 309 q0 178 -122.5 307.5t-291.5 129.5q-170 0 -293 -129t-123 -308z" />
<glyph unicode="p" horiz-adv-x="1286" d="M170 -352v1411h127v-207q63 109 165 170t230 61q134 0 245 -72t175 -199t64 -282q0 -156 -64 -283.5t-175 -199.5t-245 -72q-128 0 -230 61.5t-165 170.5v-559h-127zM297 530q0 -192 104.5 -315t268.5 -123q160 0 267 125.5t107 312.5t-107 312t-267 125 q-164 0 -268.5 -122.5t-104.5 -314.5z" />
<glyph unicode="q" horiz-adv-x="1286" d="M111 530q0 155 63.5 282t174.5 199t245 72q128 0 230 -61t165 -170v207h127v-1411h-127v559q-63 -109 -165 -170.5t-230 -61.5q-134 0 -245 72t-174.5 199.5t-63.5 283.5zM242 530q0 -187 107 -312.5t267 -125.5q164 0 268.5 123t104.5 315t-104.5 314.5t-268.5 122.5 q-160 0 -267 -125t-107 -312z" />
<glyph unicode="r" horiz-adv-x="763" d="M170 0v1059h127v-217q45 109 155.5 175t254.5 66v-116q-180 0 -295 -105.5t-115 -269.5v-592h-127z" />
<glyph unicode="s" horiz-adv-x="1009" d="M92 133l68 94q189 -135 370 -135q109 0 181.5 50t72.5 126q0 42 -19 74.5t-59.5 57.5t-85.5 43.5t-116 39.5q-193 56 -273.5 124t-80.5 179q0 130 104 213.5t260 83.5q199 0 379 -118l-64 -99q-162 101 -315 101q-100 0 -169 -46t-69 -120q0 -69 62.5 -111t226.5 -96 q84 -26 138.5 -49.5t106 -60t76.5 -86.5t25 -117q0 -133 -109.5 -219.5t-271.5 -86.5q-113 0 -229 41.5t-209 116.5z" />
<glyph unicode="t" horiz-adv-x="751" d="M76 942v117h172v291h127v-291h266v-117h-266v-696q0 -67 37 -110.5t90 -43.5q75 0 123 45l65 -94q-87 -68 -196 -68q-107 0 -176.5 76.5t-69.5 194.5v696h-172z" />
<glyph unicode="u" horiz-adv-x="1185" d="M156 379v680h127v-664q0 -133 80 -218t206 -85q139 0 235.5 85t96.5 208v674h127v-1059h-127v174q-43 -89 -137.5 -144t-210.5 -55q-175 0 -286 113.5t-111 290.5z" />
<glyph unicode="v" horiz-adv-x="1144" d="M55 1059h142l376 -897l375 897h142l-459 -1059h-113z" />
<glyph unicode="w" horiz-adv-x="1679" d="M72 1059h135l280 -889l299 889h111l297 -889l283 889h135l-355 -1059h-127l-288 870l-291 -870h-127z" />
<glyph unicode="x" horiz-adv-x="1097" d="M66 0l409 541l-393 518h149l318 -420l317 420h150l-391 -518l407 -541h-149l-334 442l-334 -442h-149z" />
<glyph unicode="y" horiz-adv-x="1196" d="M61 1059h140l391 -924l371 924h137l-488 -1190q-50 -124 -127 -180t-190 -58q-93 0 -168 35l33 113q60 -31 131 -31q117 0 172 98l63 138z" />
<glyph unicode="z" horiz-adv-x="1052" d="M111 0v100l661 838h-649v121h819v-101l-663 -837h667v-121h-835z" />
<glyph unicode="{" horiz-adv-x="804" d="M88 494v100q114 0 162.5 47t48.5 154v286q0 164 89 243t312 103l11 -96q-177 -25 -238 -78.5t-61 -179.5l2 -295q0 -97 -37 -152.5t-113 -80.5q77 -27 113.5 -83t36.5 -153l-2 -293q0 -128 61.5 -181.5t237.5 -78.5l-11 -96q-223 24 -312 103.5t-89 242.5v289 q0 106 -48.5 152.5t-162.5 46.5z" />
<glyph unicode="|" horiz-adv-x="552" d="M223 -152v1674h107v-1674h-107z" />
<glyph unicode="}" horiz-adv-x="804" d="M94 -244q176 25 237.5 78.5t61.5 181.5l-2 293q0 97 37 153t115 83q-78 25 -115 80.5t-37 152.5l2 295q0 126 -61 179.5t-238 78.5l10 96q223 -24 312.5 -103.5t89.5 -242.5v-286q0 -107 48.5 -154t162.5 -47v-100q-114 0 -162.5 -46.5t-48.5 -152.5v-289 q0 -163 -89.5 -242.5t-312.5 -103.5z" />
<glyph unicode="~" horiz-adv-x="915" d="M133 625q14 114 63 174.5t130 60.5q41 0 80.5 -21t65.5 -46.5t58 -46.5t60 -21q80 0 106 147l86 -14q-14 -114 -62.5 -174.5t-129.5 -60.5q-41 0 -80.5 21t-65.5 46.5t-58 46.5t-60 21q-83 0 -107 -148z" />
<glyph unicode="&#xa1;" horiz-adv-x="526" d="M168 987q0 40 27 68t65 28q41 0 68.5 -28t27.5 -68q0 -37 -27.5 -64.5t-68.5 -27.5q-38 0 -65 27.5t-27 64.5zM184 -348l27 1012h98l25 -1012h-150z" />
<glyph unicode="&#xa2;" horiz-adv-x="1095" d="M98 530q0 205 127.5 358t321.5 187v131h131v-125q190 -12 334 -153l-88 -86q-105 111 -246 123v-871q148 15 250 127l88 -86q-146 -146 -338 -158v-129h-131v136q-194 34 -321.5 187.5t-127.5 358.5zM231 530q0 -157 89 -275.5t227 -152.5v854q-138 -34 -227 -152.5 t-89 -273.5z" />
<glyph unicode="&#xa3;" horiz-adv-x="1232" d="M113 0v63l120 62v420h-116v117h116v286q0 212 122.5 348t314.5 136q141 0 258 -65.5t170 -172.5l-97 -92q-32 94 -123 151.5t-208 57.5q-134 0 -219.5 -101.5t-85.5 -261.5v-286h419v-117h-419v-420h774v-125h-1026z" />
<glyph unicode="&#xa5;" horiz-adv-x="1347" d="M37 1407h164l473 -705l477 705h160l-506 -743h364v-117h-426v-185h426v-116h-426v-246h-137v246h-426v116h426v185h-426v117h365z" />
<glyph unicode="&#xa8;" horiz-adv-x="839" d="M139 1317q0 33 24.5 58.5t59.5 25.5q33 0 58.5 -25.5t25.5 -58.5q0 -34 -25 -59t-59 -25q-35 0 -59.5 25t-24.5 59zM532 1317q0 33 24.5 58.5t59.5 25.5q33 0 58.5 -25.5t25.5 -58.5q0 -34 -25 -59t-59 -25q-35 0 -59.5 25t-24.5 59z" />
<glyph unicode="&#xad;" horiz-adv-x="759" d="M115 494v124h530v-124h-530z" />
<glyph unicode="&#xaf;" horiz-adv-x="892" d="M129 1223v100h635v-100h-635z" />
<glyph unicode="&#xb4;" horiz-adv-x="645" d="M129 1180l250 293l137 -31l-274 -262h-113z" />
<glyph unicode="&#xb8;" horiz-adv-x="630" d="M129 -336l37 80q58 -49 133 -49q44 0 75.5 25t31.5 59q0 32 -21.5 51.5t-60.5 19.5q-42 0 -70 -22l-33 35l68 160h98l-49 -117q8 2 24 2q60 0 100 -37.5t40 -95.5q0 -73 -57 -120.5t-140 -47.5q-106 0 -176 57z" />
<glyph unicode="&#xbf;" horiz-adv-x="1024" d="M90 4q0 137 115 247.5t295 145.5v267h133v-367q-180 -15 -295 -94.5t-115 -188.5q0 -108 82 -187t209 -79q211 0 367 201l88 -86q-190 -236 -463 -236q-181 0 -298.5 109t-117.5 268zM473 987q0 40 27 68t65 28q41 0 69 -28t28 -68q0 -37 -28 -64.5t-69 -27.5 q-38 0 -65 27.5t-27 64.5z" />
<glyph unicode="&#xc0;" d="M66 0l620 1407h143l621 -1407h-143l-146 332h-807l-145 -332h-143zM412 459h692l-346 786zM430 1790l135 31l252 -293h-112z" />
<glyph unicode="&#xc1;" d="M66 0l620 1407h143l621 -1407h-143l-146 332h-807l-145 -332h-143zM412 459h692l-346 786zM700 1528l250 293l137 -31l-274 -262h-113z" />
<glyph unicode="&#xc2;" d="M66 0l620 1407h143l621 -1407h-143l-146 332h-807l-145 -332h-143zM412 459h692l-346 786zM485 1528l209 280h125l213 -280h-108l-166 190l-164 -190h-109z" />
<glyph unicode="&#xc3;" d="M66 0l620 1407h143l621 -1407h-143l-146 332h-807l-145 -332h-143zM412 459h692l-346 786zM432 1536q14 114 63 175t130 61q41 0 80.5 -21t65.5 -47t58 -47t60 -21q79 0 106 148l86 -15q-14 -114 -62.5 -174.5t-129.5 -60.5q-41 0 -80.5 21t-65.5 46.5t-58 46.5t-60 21 q-83 0 -107 -147z" />
<glyph unicode="&#xc4;" d="M66 0l620 1407h143l621 -1407h-143l-146 332h-807l-145 -332h-143zM412 459h692l-346 786zM477 1665q0 33 24.5 58.5t59.5 25.5q33 0 58.5 -25.5t25.5 -58.5q0 -34 -25 -59t-59 -25q-35 0 -59.5 25t-24.5 59zM870 1665q0 33 24.5 58.5t59.5 25.5q33 0 58.5 -25.5 t25.5 -58.5q0 -34 -25 -59t-59 -25q-35 0 -59.5 25t-24.5 59z" />
<glyph unicode="&#xc5;" d="M66 0l620 1407h143l621 -1407h-143l-146 332h-807l-145 -332h-143zM412 459h692l-346 786zM547 1765q0 88 61.5 149.5t149.5 61.5t149.5 -61.5t61.5 -149.5t-61.5 -149.5t-149.5 -61.5t-149.5 61.5t-61.5 149.5zM631 1765q0 -53 37.5 -90t89.5 -37t89.5 37t37.5 90 t-37.5 90t-89.5 37t-89.5 -37t-37.5 -90z" />
<glyph unicode="&#xc6;" horiz-adv-x="2050" d="M66 0l811 1407h1060v-125h-847v-502h770v-127h-770v-528h847v-125h-981v332h-546l-193 -332h-151zM481 459h475v821z" />
<glyph unicode="&#xc7;" horiz-adv-x="1392" d="M106 705q0 145 58.5 279.5t156 232.5t230.5 156.5t276 58.5q144 0 275 -56.5t231 -158.5l-90 -91q-81 85 -189.5 134t-226.5 49q-117 0 -225.5 -48.5t-188 -130t-126.5 -193t-47 -232.5q0 -162 79.5 -302t215 -222.5t292.5 -82.5q118 0 226.5 49.5t189.5 135.5l90 -93 q-95 -95 -216 -151t-253 -62l-28 -71q8 2 24 2q60 0 99.5 -37.5t39.5 -95.5q0 -73 -56.5 -120.5t-139.5 -47.5q-106 0 -176 57l37 80q58 -49 133 -49q44 0 75 25t31 59q0 32 -21.5 51.5t-60.5 19.5q-41 0 -69 -22l-33 35l49 114q-134 12 -256 75.5t-211 160t-142 225.5 t-53 267z" />
<glyph unicode="&#xc8;" horiz-adv-x="1255" d="M162 0v1407h981v-125h-848v-502h770v-127h-770v-528h848v-125h-981zM412 1790l135 31l252 -293h-113z" />
<glyph unicode="&#xc9;" horiz-adv-x="1255" d="M162 0v1407h981v-125h-848v-502h770v-127h-770v-528h848v-125h-981zM496 1528l249 293l138 -31l-275 -262h-112z" />
<glyph unicode="&#xca;" horiz-adv-x="1255" d="M162 0v1407h981v-125h-848v-502h770v-127h-770v-528h848v-125h-981zM381 1528l209 280h125l213 -280h-109l-166 190l-164 -190h-108z" />
<glyph unicode="&#xcb;" horiz-adv-x="1255" d="M162 0v1407h981v-125h-848v-502h770v-127h-770v-528h848v-125h-981zM373 1665q0 33 24.5 58.5t59.5 25.5q33 0 58.5 -25.5t25.5 -58.5q0 -34 -25 -59t-59 -25q-35 0 -59.5 25t-24.5 59zM766 1665q0 33 24.5 58.5t59.5 25.5q33 0 58.5 -25.5t25.5 -58.5q0 -34 -25 -59 t-59 -25q-35 0 -59.5 25t-24.5 59z" />
<glyph unicode="&#xcc;" horiz-adv-x="454" d="M-100 1790l135 31l252 -293h-113zM162 0v1407h131v-1407h-131z" />
<glyph unicode="&#xcd;" horiz-adv-x="454" d="M162 0v1407h131v-1407h-131zM170 1528l250 293l137 -31l-274 -262h-113z" />
<glyph unicode="&#xce;" horiz-adv-x="454" d="M-45 1528l209 280h125l213 -280h-109l-166 190l-164 -190h-108zM162 0v1407h131v-1407h-131z" />
<glyph unicode="&#xcf;" horiz-adv-x="454" d="M-53 1665q0 33 24.5 58.5t59.5 25.5q33 0 58.5 -25.5t25.5 -58.5q0 -34 -25 -59t-59 -25q-35 0 -59.5 25t-24.5 59zM162 0v1407h131v-1407h-131zM340 1665q0 33 24.5 58.5t59.5 25.5q33 0 58.5 -25.5t25.5 -58.5q0 -34 -25 -59t-59 -25q-35 0 -59.5 25t-24.5 59z" />
<glyph unicode="&#xd0;" horiz-adv-x="1593" d="M86 653v127h152v627h477q216 0 386.5 -89t265.5 -249t95 -364t-95 -364.5t-265.5 -250.5t-386.5 -90h-477v653h-152zM369 121h346q270 0 443 164t173 420q0 255 -173 418t-443 163h-346v-506h432l-2 -127h-430v-532z" />
<glyph unicode="&#xd1;" horiz-adv-x="1548" d="M193 0v1407h131l901 -1194v1194h131v-1407h-131l-901 1194v-1194h-131zM449 1536q14 114 62.5 175t129.5 61q41 0 80.5 -21t65.5 -47t58 -47t60 -21q80 0 107 148l86 -15q-14 -114 -63 -174.5t-130 -60.5q-41 0 -80.5 21t-65.5 46.5t-58 46.5t-60 21q-82 0 -106 -147z " />
<glyph unicode="&#xd2;" horiz-adv-x="1652" d="M106 705q0 145 58.5 279.5t156 232.5t230.5 156.5t276 58.5q144 0 277 -58.5t229.5 -156.5t154.5 -232.5t58 -279.5q0 -194 -97.5 -362.5t-263.5 -268t-358 -99.5q-191 0 -357.5 99.5t-265 268t-98.5 362.5zM240 705q0 -162 79.5 -302t215 -222.5t292.5 -82.5t292 82.5 t214.5 222.5t79.5 302q0 161 -79.5 300.5t-214.5 221.5t-292 82q-117 0 -225.5 -48.5t-188 -130t-126.5 -193t-47 -232.5zM504 1790l135 31l252 -293h-113z" />
<glyph unicode="&#xd3;" horiz-adv-x="1652" d="M106 705q0 145 58.5 279.5t156 232.5t230.5 156.5t276 58.5q144 0 277 -58.5t229.5 -156.5t154.5 -232.5t58 -279.5q0 -194 -97.5 -362.5t-263.5 -268t-358 -99.5q-191 0 -357.5 99.5t-265 268t-98.5 362.5zM240 705q0 -162 79.5 -302t215 -222.5t292.5 -82.5t292 82.5 t214.5 222.5t79.5 302q0 161 -79.5 300.5t-214.5 221.5t-292 82q-117 0 -225.5 -48.5t-188 -130t-126.5 -193t-47 -232.5zM770 1528l250 293l137 -31l-274 -262h-113z" />
<glyph unicode="&#xd4;" horiz-adv-x="1652" d="M106 705q0 145 58.5 279.5t156 232.5t230.5 156.5t276 58.5q144 0 277 -58.5t229.5 -156.5t154.5 -232.5t58 -279.5q0 -194 -97.5 -362.5t-263.5 -268t-358 -99.5q-191 0 -357.5 99.5t-265 268t-98.5 362.5zM240 705q0 -162 79.5 -302t215 -222.5t292.5 -82.5t292 82.5 t214.5 222.5t79.5 302q0 161 -79.5 300.5t-214.5 221.5t-292 82q-117 0 -225.5 -48.5t-188 -130t-126.5 -193t-47 -232.5zM555 1528l209 280h125l213 -280h-109l-166 190l-163 -190h-109z" />
<glyph unicode="&#xd5;" horiz-adv-x="1652" d="M106 705q0 145 58.5 279.5t156 232.5t230.5 156.5t276 58.5q144 0 277 -58.5t229.5 -156.5t154.5 -232.5t58 -279.5q0 -194 -97.5 -362.5t-263.5 -268t-358 -99.5q-191 0 -357.5 99.5t-265 268t-98.5 362.5zM240 705q0 -162 79.5 -302t215 -222.5t292.5 -82.5t292 82.5 t214.5 222.5t79.5 302q0 161 -79.5 300.5t-214.5 221.5t-292 82q-117 0 -225.5 -48.5t-188 -130t-126.5 -193t-47 -232.5zM502 1536q14 114 62.5 175t129.5 61q41 0 80.5 -21t65.5 -47t58 -47t60 -21q80 0 107 148l86 -15q-14 -114 -63 -174.5t-130 -60.5q-41 0 -80.5 21 t-65.5 46.5t-58 46.5t-60 21q-82 0 -106 -147z" />
<glyph unicode="&#xd6;" horiz-adv-x="1652" d="M106 705q0 145 58.5 279.5t156 232.5t230.5 156.5t276 58.5q144 0 277 -58.5t229.5 -156.5t154.5 -232.5t58 -279.5q0 -194 -97.5 -362.5t-263.5 -268t-358 -99.5q-191 0 -357.5 99.5t-265 268t-98.5 362.5zM240 705q0 -162 79.5 -302t215 -222.5t292.5 -82.5t292 82.5 t214.5 222.5t79.5 302q0 161 -79.5 300.5t-214.5 221.5t-292 82q-117 0 -225.5 -48.5t-188 -130t-126.5 -193t-47 -232.5zM547 1665q0 33 24.5 58.5t59.5 25.5q33 0 58.5 -25.5t25.5 -58.5q0 -34 -25 -59t-59 -25q-35 0 -59.5 25t-24.5 59zM940 1665q0 33 24.5 58.5 t59.5 25.5q33 0 58.5 -25.5t25.5 -58.5q0 -34 -25 -59t-59 -25q-35 0 -59.5 25t-24.5 59z" />
<glyph unicode="&#xd7;" horiz-adv-x="1089" d="M168 397l287 287l-287 289l90 88l287 -287l289 287l88 -88l-287 -289l287 -287l-91 -90l-286 287l-287 -287z" />
<glyph unicode="&#xd8;" horiz-adv-x="1652" d="M106 705q0 145 58.5 279.5t156 232.5t230.5 156.5t276 58.5q240 0 433 -150l108 125h150l-175 -201q96 -100 149.5 -229.5t53.5 -271.5q0 -194 -97.5 -362.5t-263.5 -268t-358 -99.5q-236 0 -432 150l-108 -125h-150l176 201q-97 100 -152 231t-55 273zM240 705 q0 -233 157 -408l779 891q-156 121 -349 121q-117 0 -225.5 -48.5t-188 -130t-126.5 -193t-47 -232.5zM479 219q156 -121 348 -121q157 0 292 82.5t214.5 222.5t79.5 302q0 228 -156 405z" />
<glyph unicode="&#xd9;" horiz-adv-x="1499" d="M176 569v838h131v-838q0 -207 124.5 -340t318.5 -133q193 0 317.5 133t124.5 340v838h131v-838q0 -261 -160.5 -427.5t-412.5 -166.5t-413 166.5t-161 427.5zM508 1790l135 31l252 -293h-113z" />
<glyph unicode="&#xda;" horiz-adv-x="1499" d="M176 569v838h131v-838q0 -207 124.5 -340t318.5 -133q193 0 317.5 133t124.5 340v838h131v-838q0 -261 -160.5 -427.5t-412.5 -166.5t-413 166.5t-161 427.5zM592 1528l250 293l137 -31l-274 -262h-113z" />
<glyph unicode="&#xdb;" horiz-adv-x="1499" d="M176 569v838h131v-838q0 -207 124.5 -340t318.5 -133q193 0 317.5 133t124.5 340v838h131v-838q0 -261 -160.5 -427.5t-412.5 -166.5t-413 166.5t-161 427.5zM477 1528l209 280h125l213 -280h-109l-165 190l-164 -190h-109z" />
<glyph unicode="&#xdc;" horiz-adv-x="1499" d="M176 569v838h131v-838q0 -207 124.5 -340t318.5 -133q193 0 317.5 133t124.5 340v838h131v-838q0 -261 -160.5 -427.5t-412.5 -166.5t-413 166.5t-161 427.5zM469 1665q0 33 24.5 58.5t59.5 25.5q33 0 58.5 -25.5t25.5 -58.5q0 -34 -25 -59t-59 -25q-35 0 -59.5 25 t-24.5 59zM862 1665q0 33 24.5 58.5t59.5 25.5q33 0 58.5 -25.5t25.5 -58.5q0 -34 -25 -59t-59 -25q-35 0 -59.5 25t-24.5 59z" />
<glyph unicode="&#xdd;" horiz-adv-x="1347" d="M37 1407h164l473 -705l477 705h160l-568 -834v-573h-137v573zM516 1528l250 293l137 -31l-274 -262h-113z" />
<glyph unicode="&#xde;" horiz-adv-x="1314" d="M162 0v1407h133v-254h444q218 0 363 -125t145 -319t-145 -319.5t-363 -125.5h-446v-264h-131zM293 391h424q179 0 289 86.5t110 231.5t-110 231t-289 86h-424v-635z" />
<glyph unicode="&#xdf;" horiz-adv-x="1150" d="M172 0v1075q0 160 118.5 266.5t295.5 106.5t294 -106.5t117 -266.5q0 -107 -50.5 -192t-141.5 -135q116 -56 182 -151.5t66 -209.5q0 -165 -116 -276t-288 -111h-184v121h143q133 0 222.5 81t89.5 201t-88 197.5t-226 77.5h-141v121h121q121 0 199.5 75.5t78.5 184.5 q0 114 -80 191t-200 77t-200.5 -78.5t-80.5 -195.5v-1053h-131z" />
<glyph unicode="&#xe0;" horiz-adv-x="1161" d="M102 313q0 155 120 254t300 99q160 0 355 -64v43q0 63 -15.5 117.5t-49 103t-96 77t-147.5 28.5q-143 0 -313 -94l-51 104q192 102 375 102q204 0 314 -120t110 -318v-645h-127v168q-56 -90 -166.5 -141.5t-223.5 -51.5q-168 0 -276.5 93t-108.5 245zM227 319 q0 -104 80 -166.5t201 -62.5q77 0 151.5 25.5t136.5 82t81 134.5v170q-171 53 -336 53q-133 0 -223.5 -67t-90.5 -169zM356 1442l136 31l251 -293h-112z" />
<glyph unicode="&#xe1;" horiz-adv-x="1161" d="M102 313q0 155 120 254t300 99q160 0 355 -64v43q0 63 -15.5 117.5t-49 103t-96 77t-147.5 28.5q-143 0 -313 -94l-51 104q192 102 375 102q204 0 314 -120t110 -318v-645h-127v168q-56 -90 -166.5 -141.5t-223.5 -51.5q-168 0 -276.5 93t-108.5 245zM227 319 q0 -104 80 -166.5t201 -62.5q77 0 151.5 25.5t136.5 82t81 134.5v170q-171 53 -336 53q-133 0 -223.5 -67t-90.5 -169zM440 1180l250 293l137 -31l-274 -262h-113z" />
<glyph unicode="&#xe2;" horiz-adv-x="1161" d="M102 313q0 155 120 254t300 99q160 0 355 -64v43q0 63 -15.5 117.5t-49 103t-96 77t-147.5 28.5q-143 0 -313 -94l-51 104q192 102 375 102q204 0 314 -120t110 -318v-645h-127v168q-56 -90 -166.5 -141.5t-223.5 -51.5q-168 0 -276.5 93t-108.5 245zM227 319 q0 -104 80 -166.5t201 -62.5q77 0 151.5 25.5t136.5 82t81 134.5v170q-171 53 -336 53q-133 0 -223.5 -67t-90.5 -169zM326 1180l209 280h124l213 -280h-108l-166 190l-164 -190h-108z" />
<glyph unicode="&#xe3;" horiz-adv-x="1161" d="M102 313q0 155 120 254t300 99q160 0 355 -64v43q0 63 -15.5 117.5t-49 103t-96 77t-147.5 28.5q-143 0 -313 -94l-51 104q192 102 375 102q204 0 314 -120t110 -318v-645h-127v168q-56 -90 -166.5 -141.5t-223.5 -51.5q-168 0 -276.5 93t-108.5 245zM227 319 q0 -104 80 -166.5t201 -62.5q77 0 151.5 25.5t136.5 82t81 134.5v170q-171 53 -336 53q-133 0 -223.5 -67t-90.5 -169zM272 1188q14 114 63 174.5t130 60.5q41 0 80.5 -21t65.5 -46.5t58 -46.5t60 -21q80 0 107 148l86 -15q-14 -114 -63 -174.5t-130 -60.5q-41 0 -80.5 21 t-65.5 46.5t-58 46.5t-60 21q-83 0 -107 -147z" />
<glyph unicode="&#xe4;" horiz-adv-x="1161" d="M102 313q0 155 120 254t300 99q160 0 355 -64v43q0 63 -15.5 117.5t-49 103t-96 77t-147.5 28.5q-143 0 -313 -94l-51 104q192 102 375 102q204 0 314 -120t110 -318v-645h-127v168q-56 -90 -166.5 -141.5t-223.5 -51.5q-168 0 -276.5 93t-108.5 245zM227 319 q0 -104 80 -166.5t201 -62.5q77 0 151.5 25.5t136.5 82t81 134.5v170q-171 53 -336 53q-133 0 -223.5 -67t-90.5 -169zM317 1317q0 33 24.5 58.5t59.5 25.5q33 0 58.5 -25.5t25.5 -58.5q0 -34 -25 -59t-59 -25q-35 0 -59.5 25t-24.5 59zM711 1317q0 33 24.5 58.5t59.5 25.5 q33 0 58.5 -25.5t25.5 -58.5q0 -34 -25 -59t-59 -25q-35 0 -59.5 25t-24.5 59z" />
<glyph unicode="&#xe5;" horiz-adv-x="1161" d="M102 313q0 155 120 254t300 99q160 0 355 -64v43q0 63 -15.5 117.5t-49 103t-96 77t-147.5 28.5q-143 0 -313 -94l-51 104q192 102 375 102q204 0 314 -120t110 -318v-645h-127v168q-56 -90 -166.5 -141.5t-223.5 -51.5q-168 0 -276.5 93t-108.5 245zM227 319 q0 -104 80 -166.5t201 -62.5q77 0 151.5 25.5t136.5 82t81 134.5v170q-171 53 -336 53q-133 0 -223.5 -67t-90.5 -169zM387 1417q0 88 61.5 149.5t149.5 61.5t149.5 -61.5t61.5 -149.5t-61.5 -149.5t-149.5 -61.5t-149.5 61.5t-61.5 149.5zM471 1417q0 -53 37.5 -90 t89.5 -37t89.5 37t37.5 90t-37.5 90t-89.5 37t-89.5 -37t-37.5 -90z" />
<glyph unicode="&#xe6;" horiz-adv-x="1996" d="M102 313q0 155 120 254t300 99q160 0 355 -64v43q0 63 -15.5 117.5t-49 103t-96 77t-147.5 28.5q-143 0 -313 -94l-51 104q192 102 375 102q145 0 243 -62.5t144 -174.5q71 110 185.5 173.5t246.5 63.5q233 0 367.5 -164t134.5 -440h-895q18 -167 129.5 -277t271.5 -110 q101 0 199 36.5t153 96.5l80 -86q-66 -72 -189.5 -118t-242.5 -46q-138 0 -259 71.5t-192 193.5q-61 -120 -181 -192.5t-267 -72.5q-187 0 -296.5 91.5t-109.5 246.5zM227 319q0 -106 81.5 -167.5t219.5 -61.5q146 0 247.5 97t101.5 237v78q-171 53 -336 53 q-133 0 -223.5 -67t-90.5 -169zM1008 596h766q-12 165 -110 268t-261 103q-155 0 -265 -103.5t-130 -267.5z" />
<glyph unicode="&#xe7;" horiz-adv-x="1095" d="M98 530q0 114 43 216.5t115.5 176t173 117t211.5 43.5q104 0 200 -41t171 -114l-88 -86q-119 125 -283 125q-172 0 -291 -127t-119 -310q0 -184 119 -311t291 -127q82 0 156.5 34t130.5 95l88 -86q-145 -145 -344 -160l-29 -69q8 2 25 2q60 0 99.5 -37.5t39.5 -95.5 q0 -73 -57 -120.5t-140 -47.5q-106 0 -176 57l37 80q58 -49 133 -49q44 0 75.5 25t31.5 59q0 32 -21.5 51.5t-60.5 19.5q-42 0 -70 -22l-33 35l49 117q-204 25 -340.5 180.5t-136.5 369.5z" />
<glyph unicode="&#xe8;" horiz-adv-x="1218" d="M98 532q0 153 70.5 280t190.5 199t262 72q233 0 367 -164t134 -440h-895q18 -167 129.5 -277t272.5 -110q101 0 199 36.5t153 96.5l80 -86q-66 -72 -189.5 -118t-242.5 -46q-105 0 -202 43t-169.5 116.5t-116 177.5t-43.5 220zM229 596h766q-12 165 -109.5 268 t-260.5 103q-155 0 -265.5 -103.5t-130.5 -267.5zM379 1442l135 31l252 -293h-113z" />
<glyph unicode="&#xe9;" horiz-adv-x="1218" d="M98 532q0 153 70.5 280t190.5 199t262 72q233 0 367 -164t134 -440h-895q18 -167 129.5 -277t272.5 -110q101 0 199 36.5t153 96.5l80 -86q-66 -72 -189.5 -118t-242.5 -46q-105 0 -202 43t-169.5 116.5t-116 177.5t-43.5 220zM229 596h766q-12 165 -109.5 268 t-260.5 103q-155 0 -265.5 -103.5t-130.5 -267.5zM463 1180l250 293l137 -31l-275 -262h-112z" />
<glyph unicode="&#xea;" horiz-adv-x="1218" d="M98 532q0 153 70.5 280t190.5 199t262 72q233 0 367 -164t134 -440h-895q18 -167 129.5 -277t272.5 -110q101 0 199 36.5t153 96.5l80 -86q-66 -72 -189.5 -118t-242.5 -46q-105 0 -202 43t-169.5 116.5t-116 177.5t-43.5 220zM229 596h766q-12 165 -109.5 268 t-260.5 103q-155 0 -265.5 -103.5t-130.5 -267.5zM348 1180l209 280h125l213 -280h-109l-165 190l-164 -190h-109z" />
<glyph unicode="&#xeb;" horiz-adv-x="1218" d="M98 532q0 153 70.5 280t190.5 199t262 72q233 0 367 -164t134 -440h-895q18 -167 129.5 -277t272.5 -110q101 0 199 36.5t153 96.5l80 -86q-66 -72 -189.5 -118t-242.5 -46q-105 0 -202 43t-169.5 116.5t-116 177.5t-43.5 220zM229 596h766q-12 165 -109.5 268 t-260.5 103q-155 0 -265.5 -103.5t-130.5 -267.5zM340 1317q0 33 24.5 58.5t59.5 25.5q33 0 58.5 -25.5t25.5 -58.5q0 -34 -25 -59t-59 -25q-35 0 -59.5 25t-24.5 59zM733 1317q0 33 24.5 58.5t59.5 25.5q33 0 58.5 -25.5t25.5 -58.5q0 -34 -25 -59t-59 -25q-35 0 -59.5 25 t-24.5 59z" />
<glyph unicode="&#xec;" horiz-adv-x="434" d="M-111 1442l136 31l251 -293h-112zM154 0v1059h127v-1059h-127z" />
<glyph unicode="&#xed;" horiz-adv-x="434" d="M154 0v1059h127v-1059h-127zM160 1180l250 293l137 -31l-275 -262h-112z" />
<glyph unicode="&#xee;" horiz-adv-x="434" d="M-55 1180l209 280h125l213 -280h-109l-166 190l-164 -190h-108zM154 0v1059h127v-1059h-127z" />
<glyph unicode="&#xef;" horiz-adv-x="434" d="M-63 1317q0 33 24.5 58.5t58.5 25.5q33 0 58.5 -25.5t25.5 -58.5q0 -34 -25 -59t-59 -25q-35 0 -59 25t-24 59zM154 0v1059h127v-1059h-127zM330 1317q0 33 24.5 58.5t59.5 25.5q33 0 58.5 -25.5t25.5 -58.5q0 -34 -25 -59t-59 -25q-35 0 -59.5 25t-24.5 59z" />
<glyph unicode="&#xf0;" horiz-adv-x="1273" d="M123 506q0 227 136.5 372.5t348.5 145.5t350 -172q-92 176 -290 350l-254 -112l-47 106l198 88q-60 49 -176 127l125 53q88 -64 168 -129l201 90l47 -106l-152 -68q183 -167 278 -341t95 -369q0 -249 -143 -407.5t-369 -158.5t-371 149.5t-145 381.5zM254 504 q0 -180 108 -296t277 -116q166 0 272.5 115.5t106.5 296.5q0 175 -105.5 290t-277.5 115q-167 0 -274 -113.5t-107 -291.5z" />
<glyph unicode="&#xf1;" horiz-adv-x="1185" d="M158 0v1059h127v-174q43 89 137.5 143.5t210.5 54.5q175 0 286 -113t111 -290v-680h-127v664q0 133 -80.5 218t-206.5 85q-139 0 -235 -85t-96 -208v-674h-127zM289 1188q14 114 62.5 174.5t129.5 60.5q41 0 80.5 -21t65.5 -46.5t58 -46.5t60 -21q80 0 107 148l86 -15 q-14 -114 -63 -174.5t-130 -60.5q-41 0 -80.5 21t-65.5 46.5t-58 46.5t-60 21q-82 0 -106 -147z" />
<glyph unicode="&#xf2;" horiz-adv-x="1292" d="M98 530q0 148 75 275.5t201.5 202.5t272.5 75q109 0 210.5 -44.5t175 -119t117.5 -176.5t44 -213t-44 -213.5t-117.5 -177.5t-175 -119.5t-210.5 -44.5t-210.5 45t-175.5 119.5t-118.5 177t-44.5 213.5zM231 530q0 -180 123 -309t293 -129q169 0 291.5 129t122.5 309 q0 178 -122.5 307.5t-291.5 129.5q-170 0 -293 -129t-123 -308zM406 1442l135 31l252 -293h-113z" />
<glyph unicode="&#xf3;" horiz-adv-x="1292" d="M98 530q0 148 75 275.5t201.5 202.5t272.5 75q109 0 210.5 -44.5t175 -119t117.5 -176.5t44 -213t-44 -213.5t-117.5 -177.5t-175 -119.5t-210.5 -44.5t-210.5 45t-175.5 119.5t-118.5 177t-44.5 213.5zM231 530q0 -180 123 -309t293 -129q169 0 291.5 129t122.5 309 q0 178 -122.5 307.5t-291.5 129.5q-170 0 -293 -129t-123 -308zM489 1180l250 293l138 -31l-275 -262h-113z" />
<glyph unicode="&#xf4;" horiz-adv-x="1292" d="M98 530q0 148 75 275.5t201.5 202.5t272.5 75q109 0 210.5 -44.5t175 -119t117.5 -176.5t44 -213t-44 -213.5t-117.5 -177.5t-175 -119.5t-210.5 -44.5t-210.5 45t-175.5 119.5t-118.5 177t-44.5 213.5zM231 530q0 -180 123 -309t293 -129q169 0 291.5 129t122.5 309 q0 178 -122.5 307.5t-291.5 129.5q-170 0 -293 -129t-123 -308zM375 1180l209 280h125l213 -280h-109l-166 190l-164 -190h-108z" />
<glyph unicode="&#xf5;" horiz-adv-x="1292" d="M98 530q0 148 75 275.5t201.5 202.5t272.5 75q109 0 210.5 -44.5t175 -119t117.5 -176.5t44 -213t-44 -213.5t-117.5 -177.5t-175 -119.5t-210.5 -44.5t-210.5 45t-175.5 119.5t-118.5 177t-44.5 213.5zM231 530q0 -180 123 -309t293 -129q169 0 291.5 129t122.5 309 q0 178 -122.5 307.5t-291.5 129.5q-170 0 -293 -129t-123 -308zM322 1188q14 114 62.5 174.5t129.5 60.5q41 0 80.5 -21t65.5 -46.5t58 -46.5t60 -21q80 0 107 148l86 -15q-14 -114 -63 -174.5t-130 -60.5q-41 0 -80.5 21t-65.5 46.5t-58 46.5t-60 21q-82 0 -106 -147z" />
<glyph unicode="&#xf6;" horiz-adv-x="1292" d="M98 530q0 148 75 275.5t201.5 202.5t272.5 75q109 0 210.5 -44.5t175 -119t117.5 -176.5t44 -213t-44 -213.5t-117.5 -177.5t-175 -119.5t-210.5 -44.5t-210.5 45t-175.5 119.5t-118.5 177t-44.5 213.5zM231 530q0 -180 123 -309t293 -129q169 0 291.5 129t122.5 309 q0 178 -122.5 307.5t-291.5 129.5q-170 0 -293 -129t-123 -308zM367 1317q0 33 24.5 58.5t59.5 25.5q33 0 58.5 -25.5t25.5 -58.5q0 -34 -25 -59t-59 -25q-35 0 -59.5 25t-24.5 59zM760 1317q0 33 24.5 58.5t59.5 25.5q33 0 58.5 -25.5t25.5 -58.5q0 -34 -25 -59t-59 -25 q-35 0 -59.5 25t-24.5 59z" />
<glyph unicode="&#xf7;" horiz-adv-x="1214" d="M137 621v127h940v-127h-940zM514 354q0 37 27.5 64.5t68.5 27.5q38 0 65 -27.5t27 -64.5q0 -40 -27 -68t-65 -28q-41 0 -68.5 28t-27.5 68zM514 1018q0 37 27.5 64.5t68.5 27.5q38 0 65 -27.5t27 -64.5q0 -40 -27 -68t-65 -28q-41 0 -68.5 28t-27.5 68z" />
<glyph unicode="&#xf8;" horiz-adv-x="1292" d="M98 530q0 148 75 275.5t201.5 202.5t272.5 75q168 0 314 -102l65 78h150l-132 -154q70 -75 110 -172.5t40 -202.5q0 -111 -44 -213.5t-117.5 -177.5t-175 -119.5t-210.5 -44.5q-168 0 -309 101l-66 -76h-149l129 150q-72 77 -113 175.5t-41 204.5zM231 530 q0 -155 101 -284l549 643q-108 78 -234 78q-170 0 -293 -129t-123 -308zM416 168q107 -76 231 -76q169 0 291.5 129t122.5 309q0 157 -98 279z" />
<glyph unicode="&#xf9;" horiz-adv-x="1185" d="M156 379v680h127v-664q0 -133 80 -218t206 -85q139 0 235.5 85t96.5 208v674h127v-1059h-127v174q-43 -89 -137.5 -144t-210.5 -55q-175 0 -286 113.5t-111 290.5zM348 1442l135 31l252 -293h-112z" />
<glyph unicode="&#xfa;" horiz-adv-x="1185" d="M156 379v680h127v-664q0 -133 80 -218t206 -85q139 0 235.5 85t96.5 208v674h127v-1059h-127v174q-43 -89 -137.5 -144t-210.5 -55q-175 0 -286 113.5t-111 290.5zM432 1180l250 293l137 -31l-274 -262h-113z" />
<glyph unicode="&#xfb;" horiz-adv-x="1185" d="M156 379v680h127v-664q0 -133 80 -218t206 -85q139 0 235.5 85t96.5 208v674h127v-1059h-127v174q-43 -89 -137.5 -144t-210.5 -55q-175 0 -286 113.5t-111 290.5zM317 1180l209 280h125l213 -280h-108l-166 190l-164 -190h-109z" />
<glyph unicode="&#xfc;" horiz-adv-x="1185" d="M156 379v680h127v-664q0 -133 80 -218t206 -85q139 0 235.5 85t96.5 208v674h127v-1059h-127v174q-43 -89 -137.5 -144t-210.5 -55q-175 0 -286 113.5t-111 290.5zM309 1317q0 33 24.5 58.5t59.5 25.5q33 0 58.5 -25.5t25.5 -58.5q0 -34 -25 -59t-59 -25q-35 0 -59.5 25 t-24.5 59zM702 1317q0 33 24.5 58.5t59.5 25.5q33 0 58.5 -25.5t25.5 -58.5q0 -34 -25 -59t-59 -25q-35 0 -59.5 25t-24.5 59z" />
<glyph unicode="&#xfd;" horiz-adv-x="1196" d="M61 1059h140l391 -924l371 924h137l-488 -1190q-50 -124 -127 -180t-190 -58q-93 0 -168 35l33 113q60 -31 131 -31q117 0 172 98l63 138zM434 1180l250 293l137 -31l-274 -262h-113z" />
<glyph unicode="&#xfe;" horiz-adv-x="1286" d="M170 -352v1784h127v-580q63 109 165 170t230 61q134 0 245 -72t175 -199t64 -282q0 -156 -64 -283.5t-175 -199.5t-245 -72q-128 0 -230 61.5t-165 170.5v-559h-127zM297 530q0 -192 104.5 -315t268.5 -123q160 0 267 125.5t107 312.5t-107 312t-267 125 q-164 0 -268.5 -122.5t-104.5 -314.5z" />
<glyph unicode="&#xff;" horiz-adv-x="1196" d="M61 1059h140l391 -924l371 924h137l-488 -1190q-50 -124 -127 -180t-190 -58q-93 0 -168 35l33 113q60 -31 131 -31q117 0 172 98l63 138zM311 1317q0 33 24.5 58.5t59.5 25.5q33 0 58.5 -25.5t25.5 -58.5q0 -34 -25 -59t-59 -25q-35 0 -59.5 25t-24.5 59zM705 1317 q0 33 24.5 58.5t58.5 25.5q33 0 58.5 -25.5t25.5 -58.5q0 -34 -25 -59t-59 -25q-35 0 -59 25t-24 59z" />
<glyph unicode="&#x152;" horiz-adv-x="2084" d="M106 690q0 145 58.5 278t156 229t230.5 153t276 57h1145v-125h-848v-502h770v-127h-770v-528h848v-125h-1145q-193 0 -358 89t-264 248.5t-99 352.5zM240 690q0 -160 80 -291t214.5 -203.5t292.5 -72.5h164v1161h-164q-118 0 -226 -47t-187.5 -126.5t-126.5 -189.5 t-47 -231z" />
<glyph unicode="&#x153;" horiz-adv-x="2183" d="M98 530q0 148 75 275.5t201.5 202.5t272.5 75q150 0 277.5 -78t199.5 -208q67 132 190 209t271 77q233 0 367.5 -164t134.5 -440h-895q18 -167 129.5 -277t271.5 -110q101 0 199.5 37t153.5 96l79 -86q-66 -72 -189.5 -118t-242.5 -46q-147 0 -272.5 79.5t-194.5 213.5 q-72 -133 -200 -213t-279 -80q-109 0 -210.5 45t-175.5 119.5t-118.5 177t-44.5 213.5zM231 530q0 -180 123 -309t293 -129q169 0 291.5 129t122.5 309q0 178 -122.5 307.5t-291.5 129.5q-170 0 -293 -129t-123 -308zM1194 596h766q-12 165 -110 268t-261 103 q-155 0 -265 -103.5t-130 -267.5z" />
<glyph unicode="&#x178;" horiz-adv-x="1347" d="M37 1407h164l473 -705l477 705h160l-568 -834v-573h-137v573zM393 1665q0 33 24.5 58.5t59.5 25.5q33 0 58.5 -25.5t25.5 -58.5q0 -34 -25 -59t-59 -25q-35 0 -59.5 25t-24.5 59zM786 1665q0 33 24.5 58.5t59.5 25.5q33 0 58.5 -25.5t25.5 -58.5q0 -34 -25 -59t-59 -25 q-35 0 -59.5 25t-24.5 59z" />
<glyph unicode="&#x2c6;" horiz-adv-x="804" d="M129 1180l209 280h125l213 -280h-109l-166 190l-163 -190h-109z" />
<glyph unicode="&#x2dc;" horiz-adv-x="923" d="M137 1188q14 114 63 174.5t130 60.5q41 0 80.5 -21t65.5 -46.5t58 -46.5t60 -21q79 0 106 148l86 -15q-14 -114 -62.5 -174.5t-129.5 -60.5q-41 0 -80.5 21t-65.5 46.5t-58 46.5t-60 21q-83 0 -107 -147z" />
<glyph unicode="&#x2000;" horiz-adv-x="988" />
<glyph unicode="&#x2001;" horiz-adv-x="1976" />
<glyph unicode="&#x2002;" horiz-adv-x="988" />
<glyph unicode="&#x2003;" horiz-adv-x="1976" />
<glyph unicode="&#x2004;" horiz-adv-x="658" />
<glyph unicode="&#x2005;" horiz-adv-x="494" />
<glyph unicode="&#x2006;" horiz-adv-x="329" />
<glyph unicode="&#x2007;" horiz-adv-x="329" />
<glyph unicode="&#x2008;" horiz-adv-x="247" />
<glyph unicode="&#x2009;" horiz-adv-x="395" />
<glyph unicode="&#x200a;" horiz-adv-x="109" />
<glyph unicode="&#x2010;" horiz-adv-x="759" d="M115 494v124h530v-124h-530z" />
<glyph unicode="&#x2011;" horiz-adv-x="759" d="M115 494v124h530v-124h-530z" />
<glyph unicode="&#x2012;" horiz-adv-x="759" d="M115 494v124h530v-124h-530z" />
<glyph unicode="&#x2013;" horiz-adv-x="1181" d="M115 496v120h952v-120h-952z" />
<glyph unicode="&#x2014;" horiz-adv-x="1806" d="M115 496v120h1577v-120h-1577z" />
<glyph unicode="&#x2018;" horiz-adv-x="524" d="M150 1079q0 61 32 126t113 167l67 -51q-80 -92 -106 -191q40 0 67 -28t27 -68q0 -38 -27 -65t-69 -27q-47 0 -75.5 38t-28.5 99z" />
<glyph unicode="&#x2019;" horiz-adv-x="524" d="M162 985q80 92 106 191q-40 0 -67 28t-27 68q0 38 27 65t69 27q47 0 76 -38.5t29 -98.5t-32.5 -125.5t-113.5 -167.5z" />
<glyph unicode="&#x201c;" horiz-adv-x="921" d="M150 1079q0 61 32 126t113 167l67 -51q-80 -92 -106 -191q40 0 67 -28t27 -68q0 -38 -27 -65t-69 -27q-47 0 -75.5 38t-28.5 99zM547 1079q0 61 32 126t113 167l68 -51q-81 -93 -107 -191q40 0 67.5 -28t27.5 -68q0 -38 -27.5 -65t-69.5 -27q-47 0 -75.5 38t-28.5 99z " />
<glyph unicode="&#x201d;" horiz-adv-x="921" d="M162 985q80 92 106 191q-40 0 -67 28t-27 68q0 38 27 65t69 27q47 0 76 -38.5t29 -98.5t-32.5 -125.5t-113.5 -167.5zM557 985q81 93 107 191q-40 0 -67.5 28t-27.5 68q0 38 27.5 65t69.5 27q47 0 75.5 -38t28.5 -99t-32 -126t-113 -167z" />
<glyph unicode="&#x2026;" horiz-adv-x="1280" d="M150 72q0 37 27.5 64.5t68.5 27.5q38 0 65 -27.5t27 -64.5q0 -40 -27 -68.5t-65 -28.5q-41 0 -68.5 28.5t-27.5 68.5zM545 72q0 37 27.5 64.5t68.5 27.5q38 0 65 -27.5t27 -64.5q0 -40 -27 -68.5t-65 -28.5q-41 0 -68.5 28.5t-27.5 68.5zM942 72q0 37 27.5 64.5 t68.5 27.5q38 0 65 -27.5t27 -64.5q0 -40 -27 -68.5t-65 -28.5q-41 0 -68.5 28.5t-27.5 68.5z" />
<glyph unicode="&#x202f;" horiz-adv-x="395" />
<glyph unicode="&#x205f;" horiz-adv-x="494" />
<glyph unicode="&#x20ac;" horiz-adv-x="1392" d="M-49 494v116h162q-7 54 -7 95q0 61 13 131h-168v116h201q78 210 264.5 345t410.5 135q144 0 275 -56.5t231 -158.5l-90 -91q-81 85 -189.5 134t-226.5 49q-172 0 -317 -99t-217 -258h674v-116h-713q-14 -60 -14 -131q0 -54 8 -95h719v-116h-688q64 -174 214.5 -285 t333.5 -111q118 0 226.5 49.5t189.5 135.5l90 -93q-101 -101 -232 -158t-274 -57q-235 0 -426.5 147t-261.5 372h-188z" />
<glyph unicode="&#x25fc;" horiz-adv-x="1054" d="M0 0v1055h1055v-1055h-1055z" />
</font>
</defs>
</svg>
